Nueva fecha para Mageia 3

Después de algunas reflexiones y debates se ha decidido retrasar el lanzamiento final de Mageia 3 hasta el 18 de Mayo.

Todavía tenemos que arreglar algunos errores críticos, es decir, errores que no se pueden arreglar después de la liberación a través de actualizaciones. Principalmente tienen que ver con el programa de instalación, con la detección de hardware y los medios de instalación.

Podríamos decir “Mageia se liberará cuando esté lista”, pero entonces pareceríamos unos imitadores 🙂

¡Los empaquetadores y el equipo de control de calidad están realizando un duro trabajo para que todos ustedes tengan una magnífica versión 3 de Mageia!

¡Gracias por todas las pruebas y los informes de errores! Somos una comunidad y ustedes son parte importante de ella. Ustedes han ayudado a crear Mageia. Suena bien ¿verdad? Si desea participar más en la construcción de Mageia, por favor hágalo. Eche un vistazo por aquí para ver algunas ideas, hay todo tipo de equipos a los que pueden unirse y no tienen que tener grandes conocimientos técnicos para involucrarse. Y sería muy bien recibidos.

Traducido del original publicado por ennael

Esta entrada fue publicada en Empaquetador, Mageia, pruebas, QA, versiones. Guarda el enlace permanente.

10 respuestas a Nueva fecha para Mageia 3

  1. Pingback: PING #31: Android, Sabayon, Mageia, LibreOffice, Chakra, Bugtraq, Fuduntu...

  2. juanp dijo:

    ¿En esta versión mageia contará con mantenimiento para tarjeta gráfica NVIDIA? La versión 2 no es operativa en un portátil ACER 5750M con procesador i3 y tárjeta gráfica NVIDIA Geforce 610M. Tal vez el fallo se deba a mi desconocimiento en linux, pero ese es un problema común a todos aquellos que nos acercamos por primera vez a este sistema operativo.

    • Jacen dijo:

      ¿Instalaste los repositorios non-free?
      En http://www.blogdrake.net, el foro oficial de Mageia en español, te podemos dar mas ayuda sobre el tema.

      • juanp dijo:

        No. Como ya comenté no tengo conocimientos en linux, por eso estoy esperando que esta nueva versión nos solucione el problema de forma automática. El disco duro está compartido con un win7 y mi temor es que pudiera llegar a arrasar con todo.
        Saludos

  3. arion dijo:

    no se olviden de los codecs para los celularesssssssssssssssssss !!!!!! graciassss 🙂 necesitos codecs para pasar mis videos al celular!

  4. arion dijo:

    hola que tengo queinstalar para convertir a este formato de celular??? yaintale todos los conversores y ninguno funciona! gracias

    General
    Complete name : /home/arion/Vídeos/MOV10031.mp4
    Format : MPEG-4
    Format profile : 3GPP Media Release 4
    Codec ID : 3gp4
    File size : 419 KiB
    Duration : 3s 570ms
    Overall bit rate : 961 Kbps
    Encoded date : UTC 2011-12-23 19:45:41
    Tagged date : UTC 2011-12-23 19:45:41

    Video
    ID : 1
    Format : MPEG-4 Visual
    Format profile : Simple@L1
    Format settings, BVOP : Yes
    Format settings, QPel : No
    Format settings, GMC : No warppoints
    Format settings, Matrix : Default (H.263)
    Codec ID : 20
    Duration : 3s 570ms
    Bit rate mode : Variable
    Bit rate : 910 Kbps
    Width : 720 pixels
    Height : 480 pixels
    Display aspect ratio : 3:2
    Frame rate mode : Variable
    Frame rate : 29.695 fps
    Minimum frame rate : 14.363 fps
    Maximum frame rate : 30.418 fps
    Standard : NTSC
    Color space : YUV
    Bit depth : 8 bits
    Scan type : Progressive
    Compression mode : Lossy
    Bits/(Pixel*Frame) : 0.089
    Stream size : 397 KiB (95%)
    Language : English
    Encoded date : UTC 2011-12-23 19:45:41
    Tagged date : UTC 2011-12-23 19:45:41

    Audio
    ID : 6
    Format : AMR
    Format/Info : Adaptive Multi-Rate
    Format profile : Narrow band
    Codec ID : samr
    Duration : 3s 500ms
    Bit rate mode : Constant
    Bit rate : 12.8 Kbps
    Channel(s) : 1 channel
    Sampling rate : 8 000 Hz
    Bit depth : 13 bits
    Stream size : 5.47 KiB (1%)
    Writing library : MTK
    Language : English

  5. Jmlopez dijo:

    Esperemos que todos los problemas estén solucionados. Tengo un netbook “vacío” esperando a que salga esta versión. Instalé la “RC” y no ha sido capaz de iniciar, siempre se vuelve al login de usuario. Supongo que este será uno de los problemas que han de solucionar.

    A ver si la espera merece la pena….

  6. Cucunco dijo:

    Hola, acabo de instalar Mageia y todo ha ido correctamente; pero al reiniciar sólo se carga el fondo de pantalla, nada de iconos, barras, ratón… ¿Sabéis de qué puede ser? Gracias.